Geri git   Divx, DVDRip Xvid ve Türkçe Dublaj Film Paylaşım Forumu > Dizi İzle > Yerli Diziler > Kurtlar Vadisi Pusu


Kurtlar Vadisi Pusu - 217.Bölüm | x264-Mkv-720x576-390MB | SinanFurkan - 8 Tek Link


Cevapla
 
Konu Araçları
  #1  
Alt 06-03-2014, 23:05
 
Standart Kurtlar Vadisi Pusu - 217.Bölüm | x264-Mkv-720x576-390MB | SinanFurkan - 8 Tek Link Kurtlar Vadisi Pusu - 217.Bölüm | x264-Mkv-720x576-390MB | SinanFurkan - 8 Tek Link

Kurtlar Vadisi Pusu | Bölüm 217 | x264-Mkv-720x576 | SinanFurkan OpeD



Kod:
General
Complete name                            : Kurtlar.Vadisi.Pusu.BL.217.Mkv.x264-390MB-SinanFurkan-OpeD.mkv
Format                                   : Matroska
Format version                           : Version 2
File size                                : 390 MiB
Duration                                 : 1h 41mn
Overall bit rate                         : 538 Kbps
Encoded date                             : UTC 2014-03-06 20:47:25
Writing application                      : mkvmerge v5.8.0 ('No Sleep / Pillow') built on Sep  2 2012 15:37:04
Writing library                          : libebml v1.2.3 + libmatroska v1.3.0

Video
ID                                       : 1
Format                                   : AVC
Format/Info                              : Advanced Video Codec
Format profile                           : High@L3.0
Format settings, CABAC                   : Yes
Format settings, ReFrames                : 4 frames
Muxing mode                              : Header stripping
Codec ID                                 : V_MPEG4/ISO/AVC
Duration                                 : 1h 41mn
Bit rate                                 : 452 Kbps
Width                                    : 720 pixels
Height                                   : 576 pixels
Display aspect ratio                     : 4:3
Original display aspect ratio            : 4:3
Frame rate mode                          : Constant
Frame rate                               : 25.000 fps
Standard                                 : PAL
Color space                              : YUV
Chroma subsampling                       : 4:2:0
Bit depth                                : 8 bits
Scan type                                : Progressive
Bits/(Pixel*Frame)                       : 0.044
Stream size                              : 324 MiB (83%)
Writing library                          : x264 core 128 r2216 198a7ea
Encoding settings                        : cabac=1 / ref=2 / deblock=1:-1:-1 / analyse=0x3:0x113 / me=hex / subme=6 / psy=1 / psy_rd=1.00:0.15 / mixed_ref=1 / me_range=16 / chroma_me=1 / trellis=1 / 8x8dct=1 / cqm=0 / deadzone=21,11 / fast_pskip=1 / chroma_qp_offset=-3 / threads=6 / lookahead_threads=1 / sliced_threads=0 / nr=0 / decimate=1 / interlaced=0 / bluray_compat=0 / constrained_intra=0 / bframes=3 / b_pyramid=2 / b_adapt=1 / b_bias=0 / direct=1 / weightb=1 / open_gop=0 / weightp=1 / keyint=250 / keyint_min=25 / scenecut=40 / intra_refresh=0 / rc_lookahead=30 / rc=2pass / mbtree=1 / bitrate=452 / ratetol=1.0 / qcomp=0.60 / qpmin=0 / qpmax=69 / qpstep=4 / cplxblur=20.0 / qblur=0.5 / ip_ratio=1.40 / aq=1:1.00
Default                                  : Yes
Forced                                   : No

Audio
ID                                       : 2
Format                                   : MPEG Audio
Format version                           : Version 1
Format profile                           : Layer 3
Mode                                     : Joint stereo
Mode extension                           : MS Stereo
Muxing mode                              : Header stripping
Codec ID                                 : A_MPEG/L3
Codec ID/Hint                            : MP3
Duration                                 : 1h 41mn
Bit rate mode                            : Constant
Bit rate                                 : 80.0 Kbps
Channel count                            : 2 channels
Sampling rate                            : 32.0 KHz
Compression mode                         : Lossy
Stream size                              : 58.0 MiB (15%)
Language                                 : Turkish
Default                                  : Yes
Forced                                   : No
Kod:
http://k2s.cc/file/52be11855ab02/dizi

http://terafile.co/dir/69931171091413

http://letitbit.net/folder/22683162/12979528

http://turbobit.net/download/folder/1015340

http://netfolder.in/GVZAOkL/diziler

http://www.filefactory.com/f/7c327cd32f73b92c/

http://ul.to/folder/iisdez

http://hitfile.net/download/folder/1309267
http://terafile.co/9ca735300c07/Kurt...urkan-OpeD.mkv

http://u22683162.letitbit.net/downlo...-OpeD.mkv.html

Kurtlar.Vadisi.Pusu.BL.217.Mkv.x264-390MB-SinanFurkan-OpeD.mkv

http://uploaded.net/file/6l5pps85/Ku...urkan-OpeD.mkv

http://freakshare.com/files/2xx6ehic...-OpeD.mkv.html

http://www.netload.in/dateiDH9xO5qnD...n-OpeD.mkv.htm

http://bitshare.com/files/b3m0s1k7/K...-OpeD.mkv.html

Kurtlar.Vadisi.Pusu.BL.217.Mkv.x264-390MB-SinanFurkan-OpeD.mkv

http://bitshare.com/files/q7fiq1i0/K...-OpeD.mkv.html


Rip By SinanFurkan OpeD

Linkler Birbirleriyle Uyumludur......Iyi Seyirler



Referal Links:
http://terafile.co/signup-61494.html
http://terafile.co/premium-61494.htm
http://ul.to/ref/969388
http://netload.in/index.php?refer_id=0QSi0UU&id=5
http://bitshare.com/?referral=3b754791ff9a
http://freakshare.com/?ref=561561
http://www.filefactory.com/member/refer/h5qOtec
http://lib.wm-panel.com/reg/8652069d...2f3edcf2e1bb50

Konu sinanfurkan tarafından (06-03-2014 Saat 23:26 ) değiştirilmiştir.
Alıntı ile Cevapla
Cevapla

Anahtar Kelimeler
Kurtlar Vadisi Pusu - 217.Bölüm | x264-Mkv-720x576-390MB | SinanFurkan - 8 Tek Link indir, Kurtlar Vadisi Pusu - 217.Bölüm | x264-Mkv-720x576-390MB | SinanFurkan - 8 Tek Link letitbit, Kurtlar Vadisi Pusu - 217.Bölüm | x264-Mkv-720x576-390MB | SinanFurkan - 8 Tek Link turbobit, Kurtlar Vadisi Pusu - 217.Bölüm | x264-Mkv-720x576-390MB | SinanFurkan - 8 Tek Link download, Kurtlar Vadisi Pusu - 217.Bölüm | x264-Mkv-720x576-390MB | SinanFurkan - 8 Tek Link filmi, Kurtlar Vadisi Pusu - 217.Bölüm | x264-Mkv-720x576-390MB | SinanFurkan - 8 Tek Link tek link indir



Konuyu Toplam 1 Üye okuyor. (0 Kayıtlı üye ve 1 Misafir)
 
Konu Araçları


Benzer Konular
Konu Konuyu Başlatan Forum Cevaplar Son Mesaj
Kurtlar Vadisi Pusu - 214.Bölüm | x264-Mkv-720x576-459MB | SinanFurkan - 8 Tek Link sinanfurkan Kurtlar Vadisi Pusu 0 06-02-2014 23:58
Kurtlar Vadisi Pusu - 212.Bölüm | x264-Mkv-720x576-425MB | SinanFurkan - 9 Tek Link sinanfurkan Kurtlar Vadisi Pusu 0 28-01-2014 01:13
Kurtlar Vadisi Pusu - 210.Bölüm | x264-Mkv-720x576-410MB | SinanFurkan - 9 Tek Link sinanfurkan Kurtlar Vadisi Pusu 0 09-01-2014 23:42
Kurtlar Vadisi Pusu - 205.Bölüm | x264-Mkv-720x576-393MB | SinanFurkan - 10 Tek Link sinanfurkan Kurtlar Vadisi Pusu 1 22-11-2013 00:42
Kurtlar Vadisi Pusu - 201.Bölüm | x264-Mkv-720x576-468MB | SinanFurkan - 10 Tek Link sinanfurkan Kurtlar Vadisi Pusu 0 25-10-2013 00:00


Bütün Zaman Ayarları WEZ +3 olarak düzenlenmiştir. Şu Anki Saat: 07:11 .


Powered by vBulletin® Version 3.8.7
Copyright ©2000 - 2014, Jelsoft Enterprises Ltd.
divxn film izle hd dizi izle escort bayan bayan escort escort istanbul escort bayan