Geri git   Divx, DVDRip Xvid ve Türkçe Dublaj Film Paylaşım Forumu > Dizi İzle > Yerli Diziler > Kurtlar Vadisi Pusu


Kurtlar Vadisi Pusu - 210.Bölüm | x264-Mkv-720x576-410MB | SinanFurkan - 9 Tek Link


Cevapla
 
Konu Araçları
  #1  
Alt 09-01-2014, 23:42
 
Standart Kurtlar Vadisi Pusu - 210.Bölüm | x264-Mkv-720x576-410MB | SinanFurkan - 9 Tek Link Kurtlar Vadisi Pusu - 210.Bölüm | x264-Mkv-720x576-410MB | SinanFurkan - 9 Tek Link

Kurtlar Vadisi Pusu | Bölüm 210 | x264-Mkv-720x576 | SinanFurkan OpeD



Kod:
General
Complete name                            : Kurtlar.Vadisi.Pusu.BL.210.Mkv.x264-411MB-SinanFurkan-OpeD.mkv
Format                                   : Matroska
Format version                           : Version 2
File size                                : 411 MiB
Duration                                 : 1h 46mn
Overall bit rate                         : 537 Kbps
Encoded date                             : UTC 2014-01-09 21:24:28
Writing application                      : mkvmerge v5.8.0 ('No Sleep / Pillow') built on Sep  2 2012 15:37:04
Writing library                          : libebml v1.2.3 + libmatroska v1.3.0

Video
ID                                       : 1
Format                                   : AVC
Format/Info                              : Advanced Video Codec
Format profile                           : [email protected]
Format settings, CABAC                   : Yes
Format settings, ReFrames                : 4 frames
Muxing mode                              : Header stripping
Codec ID                                 : V_MPEG4/ISO/AVC
Duration                                 : 1h 46mn
Bit rate                                 : 455 Kbps
Width                                    : 720 pixels
Height                                   : 576 pixels
Display aspect ratio                     : 4:3
Original display aspect ratio            : 4:3
Frame rate mode                          : Constant
Frame rate                               : 25.000 fps
Standard                                 : PAL
Color space                              : YUV
Chroma subsampling                       : 4:2:0
Bit depth                                : 8 bits
Scan type                                : Progressive
Bits/(Pixel*Frame)                       : 0.044
Stream size                              : 342 MiB (83%)
Writing library                          : x264 core 128 r2216 198a7ea
Encoding settings                        : cabac=1 / ref=2 / deblock=1:-1:-1 / analyse=0x3:0x113 / me=hex / subme=6 / psy=1 / psy_rd=1.00:0.15 / mixed_ref=1 / me_range=16 / chroma_me=1 / trellis=1 / 8x8dct=1 / cqm=0 / deadzone=21,11 / fast_pskip=1 / chroma_qp_offset=-3 / threads=6 / lookahead_threads=1 / sliced_threads=0 / nr=0 / decimate=1 / interlaced=0 / bluray_compat=0 / constrained_intra=0 / bframes=3 / b_pyramid=2 / b_adapt=1 / b_bias=0 / direct=1 / weightb=1 / open_gop=0 / weightp=1 / keyint=250 / keyint_min=25 / scenecut=40 / intra_refresh=0 / rc_lookahead=30 / rc=2pass / mbtree=1 / bitrate=455 / ratetol=1.0 / qcomp=0.60 / qpmin=0 / qpmax=69 / qpstep=4 / cplxblur=20.0 / qblur=0.5 / ip_ratio=1.40 / aq=1:1.00
Default                                  : Yes
Forced                                   : No

Audio
ID                                       : 2
Format                                   : MPEG Audio
Format version                           : Version 1
Format profile                           : Layer 3
Mode                                     : Joint stereo
Mode extension                           : MS Stereo
Muxing mode                              : Header stripping
Codec ID                                 : A_MPEG/L3
Codec ID/Hint                            : MP3
Duration                                 : 1h 46mn
Bit rate mode                            : Constant
Bit rate                                 : 80.0 Kbps
Channel count                            : 2 channels
Sampling rate                            : 32.0 KHz
Compression mode                         : Lossy
Stream size                              : 61.2 MiB (15%)
Language                                 : Turkish
Default                                  : Yes
Forced                                   : No
Kod:
http://k2s.cc/file/52be11855ab02/dizi

http://letitbit.net/folder/22683162/12979528

http://turbobit.net/download/folder/1015340

http://netfolder.in/GVZAOkL/diziler

http://www.filefactory.com/f/7c327cd32f73b92c/

http://ul.to/folder/iisdez

http://bitshare.com/?d=ts49ain9

http://freakshare.com/folder/170204/a6781ca.html

http://hitfile.net/download/folder/1309267
http://bitshare.com/files/0wah9oud/K...-OpeD.mkv.html

Kurtlar.Vadisi.Pusu.BL.210.Mkv.x264-410MB-SinanFurkan-OpeD.mkv

http://u22683162.letitbit.net/downlo...-OpeD.mkv.html

http://uploaded.net/file/00h86jqf/Ku...urkan-OpeD.mkv

http://freakshare.com/files/mnb7fd2e...-OpeD.mkv.html

http://k2s.cc/file/52cf16e69e6f2/Kur...urkan-OpeD.mkv

http://www.netload.in/datei8SXSejNIM...n-OpeD.mkv.htm

http://www.filefactory.com/file/5nme...urkan-OpeD.mkv

Kurtlar.Vadisi.Pusu.BL.210.Mkv.x264-410MB-SinanFurkan-OpeD.mkv


Rip By SinanFurkan

Linkler Birbirleriyle Uyumludur......Iyi Seyirler



Referral URL:

http://www.fastsonic.net/free421.html
http://ul.to/ref/969388
http://netload.in/index.php?refer_id=0QSi0UU&id=5
http://bitshare.com/?referral=3b754791ff9a
http://freakshare.com/?ref=561561
http://www.filefactory.com/member/refer/h5qOtec
http://lib.wm-panel.com/reg/8652069d...2f3edcf2e1bb50
Alıntı ile Cevapla
Cevapla


Konuyu Toplam 1 Üye okuyor. (0 Kayıtlı üye ve 1 Misafir)
 
Konu Araçları


Benzer Konular
Konu Konuyu Başlatan Forum Cevaplar Son Mesaj
Kurtlar Vadisi Pusu - 209.Bölüm | x264-Mkv-720x576-450MB | SinanFurkan - 8 Tek Link sinanfurkan Kurtlar Vadisi Pusu 0 27-12-2013 02:02
Kurtlar Vadisi Pusu - 205.Bölüm | x264-Mkv-720x576-393MB | SinanFurkan - 10 Tek Link sinanfurkan Kurtlar Vadisi Pusu 1 22-11-2013 00:42
Kurtlar Vadisi Pusu - 204.Bölüm | x264-Mkv-720x576 -398MB | SinanFurkan - 10 Tek Link sinanfurkan Kurtlar Vadisi Pusu 1 15-11-2013 00:00
Kurtlar Vadisi Pusu - 203.Bölüm | x264-Mkv-720x576-431MB | SinanFurkan - 10 Tek Link sinanfurkan Kurtlar Vadisi Pusu 0 08-11-2013 00:07
Kurtlar Vadisi Pusu - 199.Bölüm | x264-Mkv-720x576-393MB | SinanFurkan - 10 Tek Link sinanfurkan Kurtlar Vadisi Pusu 0 03-10-2013 23:05


Bütün Zaman Ayarları WEZ +3 olarak düzenlenmiştir. Şu Anki Saat: 09:49 .


Powered by vBulletin® Version 3.8.9
Copyright ©2000 - 2016, Jelsoft Enterprises Ltd.
dizibox yabancı dizi izle full film indir bahis siteleri betist samsunescort4 eskisehir.escort26.com indir film indir full film indir film izle dizi izle
buca escort izmir escort full hd film izle gebze escort samsun escort sinema izle HD Film izle FilMakinesi