Geri git   Divx, DVDRip Xvid ve Türkçe Dublaj Film Paylaşım Forumu > Dizi İzle > Yerli Diziler > Kurtlar Vadisi Pusu


Kurtlar Vadisi Pusu - 206.Bölüm | x264-Mkv-720x400-434MB | SinanFurkan - 8 Tek Link


Cevapla
 
Konu Araçları
  #1  
Alt 06-12-2013, 00:10
 
Standart Kurtlar Vadisi Pusu - 206.Bölüm | x264-Mkv-720x400-434MB | SinanFurkan - 8 Tek Link Kurtlar Vadisi Pusu - 206.Bölüm | x264-Mkv-720x400-434MB | SinanFurkan - 8 Tek Link

Kurtlar Vadisi Pusu | Bölüm 206 | x264-Mkv-720x576 | SinanFurkan OpeD



Kod:
General
Complete name                            : Kurtlar.Vadisi.Pusu.BL.206.Mkv.x264-434MB-SinanFurkan-OpeD.mkv
Format                                   : Matroska
Format version                           : Version 2
File size                                : 435 MiB
Duration                                 : 1h 53mn
Overall bit rate                         : 537 Kbps
Encoded date                             : UTC 2013-12-05 21:49:03
Writing application                      : mkvmerge v5.8.0 ('No Sleep / Pillow') built on Sep  2 2012 15:37:04
Writing library                          : libebml v1.2.3 + libmatroska v1.3.0

Video
ID                                       : 1
Format                                   : AVC
Format/Info                              : Advanced Video Codec
Format profile                           : High@L3.0
Format settings, CABAC                   : Yes
Format settings, ReFrames                : 4 frames
Muxing mode                              : Header stripping
Codec ID                                 : V_MPEG4/ISO/AVC
Duration                                 : 1h 53mn
Bit rate                                 : 454 Kbps
Width                                    : 720 pixels
Height                                   : 400 pixels
Display aspect ratio                     : 16:9
Frame rate mode                          : Constant
Frame rate                               : 25.000 fps
Color space                              : YUV
Chroma subsampling                       : 4:2:0
Bit depth                                : 8 bits
Scan type                                : Progressive
Bits/(Pixel*Frame)                       : 0.063
Stream size                              : 361 MiB (83%)
Writing library                          : x264 core 128 r2216 198a7ea
Encoding settings                        : cabac=1 / ref=2 / deblock=1:-1:-1 / analyse=0x3:0x113 / me=hex / subme=6 / psy=1 / psy_rd=1.00:0.15 / mixed_ref=1 / me_range=16 / chroma_me=1 / trellis=1 / 8x8dct=1 / cqm=0 / deadzone=21,11 / fast_pskip=1 / chroma_qp_offset=-3 / threads=6 / lookahead_threads=1 / sliced_threads=0 / nr=0 / decimate=1 / interlaced=0 / bluray_compat=0 / constrained_intra=0 / bframes=3 / b_pyramid=2 / b_adapt=1 / b_bias=0 / direct=1 / weightb=1 / open_gop=0 / weightp=1 / keyint=250 / keyint_min=25 / scenecut=40 / intra_refresh=0 / rc_lookahead=30 / rc=2pass / mbtree=1 / bitrate=454 / ratetol=1.0 / qcomp=0.60 / qpmin=0 / qpmax=69 / qpstep=4 / cplxblur=20.0 / qblur=0.5 / ip_ratio=1.40 / aq=1:1.00
Default                                  : Yes
Forced                                   : No

Audio
ID                                       : 2
Format                                   : MPEG Audio
Format version                           : Version 1
Format profile                           : Layer 3
Mode                                     : Joint stereo
Mode extension                           : MS Stereo
Muxing mode                              : Header stripping
Codec ID                                 : A_MPEG/L3
Codec ID/Hint                            : MP3
Duration                                 : 1h 53mn
Bit rate mode                            : Constant
Bit rate                                 : 80.0 Kbps
Channel(s)                               : 2 channels
Sampling rate                            : 32.0 KHz
Compression mode                         : Lossy
Stream size                              : 64.8 MiB (15%)
Language                                 : Turkish
Default                                  : Yes
Forced                                   : No
Kod:
http://www.fastsonic.net/users/sinanfurkan/461/dizi

http://letitbit.net/folder/22683162/12979528

https://hotfile.com/list/2023539/24cfcac

http://turbobit.net/download/folder/1015340

http://netfolder.in/GVZAOkL/diziler

http://www.filefactory.com/f/7c327cd32f73b92c/

http://ul.to/folder/iisdez

http://bitshare.com/?d=ts49ain9

http://www.cloudnator.com/folder/430d5c25

http://freakshare.com/folder/170204/a6781ca.html

http://hitfile.net/download/folder/1309267
http://bitshare.com/files/y6uqmumz/K...-OpeD.mkv.html

http://www.fastsonic.net/7a9roub91ff...urkan-OpeD.mkv

Kurtlar.Vadisi.Pusu.BL.206.Mkv.x264-434MB-SinanFurkan-OpeD.mkv

http://u22683162.letitbit.net/downlo...-OpeD.mkv.html

http://uploaded.net/file/lg3nxhfj/Ku...urkan-OpeD.mkv

http://freakshare.com/files/51vkphcr...-OpeD.mkv.html

http://www.netload.in/datei5bBAiJun1...n-OpeD.mkv.htm

Kurtlar.Vadisi.Pusu.BL.206.Mkv.x264-434MB-SinanFurkan-OpeD.mkv


Rip By SinanFurkan

Linkler Birbirleriyle Uyumludur......Iyi Seyirler



Referral URL:

http://www.fastsonic.net/free421.html
http://hotfile.com/register.html?reff=5686461
http://ul.to/ref/969388
http://netload.in/index.php?refer_id=0QSi0UU&id=5
http://bitshare.com/?referral=3b754791ff9a
http://www.shragle.com?ref=46966
http://freakshare.com/?ref=561561
http://www.filefactory.com/member/refer/h5qOtec
http://lib.wm-panel.com/reg/8652069d...2f3edcf2e1bb50
http://unextfiles.com/partner/?PHPSE...65FB87E98A10ED

Aynı kategoriden son konular:
Alıntı ile Cevapla
Cevapla

Anahtar Kelimeler
Kurtlar Vadisi Pusu - 206.Bölüm | x264-Mkv-720x400-434MB | SinanFurkan - 8 Tek Link indir, Kurtlar Vadisi Pusu - 206.Bölüm | x264-Mkv-720x400-434MB | SinanFurkan - 8 Tek Link letitbit, Kurtlar Vadisi Pusu - 206.Bölüm | x264-Mkv-720x400-434MB | SinanFurkan - 8 Tek Link turbobit, Kurtlar Vadisi Pusu - 206.Bölüm | x264-Mkv-720x400-434MB | SinanFurkan - 8 Tek Link download, Kurtlar Vadisi Pusu - 206.Bölüm | x264-Mkv-720x400-434MB | SinanFurkan - 8 Tek Link filmi, Kurtlar Vadisi Pusu - 206.Bölüm | x264-Mkv-720x400-434MB | SinanFurkan - 8 Tek Link tek link indir



Konuyu Toplam 1 Üye okuyor. (0 Kayıtlı üye ve 1 Misafir)
 
Konu Araçları


Benzer Konular
Konu Konuyu Başlatan Forum Cevaplar Son Mesaj
Kurtlar Vadisi Pusu - 203.Bölüm | x264-Mkv-720x576-431MB | SinanFurkan - 10 Tek Link sinanfurkan Kurtlar Vadisi Pusu 0 08-11-2013 00:07
Kurtlar Vadisi Pusu - 202.Bölüm | x264-Mkv-720x576-439MB | SinanFurkan - 10 Tek Link sinanfurkan Kurtlar Vadisi Pusu 0 31-10-2013 23:46
Kurtlar Vadisi Pusu - 201.Bölüm | x264-Mkv-720x576-468MB | SinanFurkan - 10 Tek Link sinanfurkan Kurtlar Vadisi Pusu 0 25-10-2013 00:00
Kurtlar Vadisi Pusu - 200.Bölüm | x264-Mkv-720x576-414MB | SinanFurkan - 10 Tek Link sinanfurkan Kurtlar Vadisi Pusu 0 10-10-2013 23:45
Kurtlar Vadisi Pusu - 199.Bölüm | x264-Mkv-720x576-393MB | SinanFurkan - 10 Tek Link sinanfurkan Kurtlar Vadisi Pusu 0 03-10-2013 23:05


Bütün Zaman Ayarları WEZ +3 olarak düzenlenmiştir. Şu Anki Saat: 00:01 .


Powered by vBulletin® Version 3.8.7
Copyright ©2000 - 2014, Jelsoft Enterprises Ltd.
divxn film izle hd dizi izle escort bayan bayan escort escort istanbul escort bayan